ffmpeg fehler bei dvd-divX

Dieses Thema im Forum "Hardware" wurde erstellt von frozzl, 17. November 2002.

  1. frozzl

    frozzl New Member

    /volumes/daten/dvd/shrek/shrek.avi':
    Stream #0.0: Video: msmpeg4 (hq), 640x352, 25.00 fps, q=2-9, 1186 kb/s
    Stream #0.1: Audio: mp2, 44100 Hz, stereo, 128 kb/s
    Stream mapping:
    Stream #0.0 -> #0.0
    Stream #0.1 -> #0.1
    No accelerated IMDCT transform found
    Press [q] to stop encoding
    dyld: /Applications/ffmpegX.app/Contents/Resources/ffmpeg Undefined symbols:
    /Applications/ffmpegX.app/Contents/Resources/ffmpeg undefined reference to ___nan expected to be defined in /usr/lib/libSystem.B.dylib
    Encoding complete!
    [localhost:~] ingemein%

    10.1.5, G3, QT 6, ffmpeg X 0.0.4g

    Das ganze dauert 10 sekunden, er macht nichts. Ist die Installation fehlerhaft ??
     
  2. MacPENTA

    MacPENTA New Member

    ah du also auch,dann bin ich mir nun sicher das ffmpegx das nicht kann zumindest noch nicht.

    aber es gibt nen weg wie es trozdem geht

    besorge dir D-Vision-1.2
    das prg arbeitet mit ffmpegx und macht dann divx

    oder du besorgst dir MacDivxCreator

    beides findest du unter www.versiontracker.com
    such aber unter osx ;)

    GrussMacPENTA
     
  3. frozzl

    frozzl New Member

Diese Seite empfehlen