ffmpeg mp3 in ac3

Dieses Thema im Forum "Hardware" wurde erstellt von Bendid, 7. August 2007.

  1. Bendid

    Bendid New Member

    Hallo,

    ich versuche nun seit Stunden meine Audio files (mp3, m4p) in ac3 umzuwandeln. Möchte diese Datein für eine Diashow in DVD Studio verwenden.

    ffmpeg codiert zwar, allerdings hat die ac3 Datei danach 0 Kb. Terminal sagt:

    FFmpeg version CVS, Copyright (c) 2000-2004 Fabrice Bellard
    Mac OSX universal build for ffmpegX
    Tue Aug 7 12:28:05 CEST 2007
    libavutil version: 49.0.0
    libavcodec version: 51.9.0
    libavformat version: 50.4.0
    Input #0, wav, from '/Users/benjaminberger/Documents/01 Louder.wav':
    Duration: 00:03:40.2, start: 0.000000, bitrate: 1536 kb/s
    Stream #0.0: Audio: pcm_s16le, 48000 Hz, stereo, 1536 kb/s
    Input #1, mp3, from '/Users/benjaminberger/Documents/Audio/01 Louder.mp3':
    Duration: 00:03:40.3, start: 0.000000, bitrate: 191 kb/s
    Stream #1.0: Audio: mp3, 44100 Hz, stereo, 192 kb/s
    Could not find input stream #1.2

    Habs schon mit verschiedenen Varianten probiert, also die Daten auch erst in wav umgewandelt…

    Bitte um Hilfe. Evtl auch links zu Tutorials


    Sorry, wollte das Thema in Software starten
     
  2. Mathias

    Mathias New Member

    Ich würde 'mal alle Leerzeichen aus den Dateinamen entfernen... ;)
     
  3. w8ing4xs

    w8ing4xs Insasse

  4. Bendid

    Bendid New Member

    Ok vielen Dank. Werd mal noch ein wenig rumprobieren…
     
  5. D_Stahl

    D_Stahl Active Member

    Was soll das bringen MP3 in AC3 umzuwandeln?
     

Diese Seite empfehlen