ffmpegX & divx

Dieses Thema im Forum "Hardware" wurde erstellt von MacPENTA, 11. November 2002.

  1. MacPENTA

    MacPENTA New Member

    also ich versteh nicht warum das nicht hinghauen hat.
    ich hab mal ne divx versucht zuerstellen und das klappte erst auch mit einer kleinen vob aber nun mit einer grossen hat es nicht hingehauen,

    Stream #0.0: Video: msmpeg4 (hq), 640x352, 25.00 fps, q=2-9, 1105 kb/s
    Stream #0.1: Audio: mp3, 44100 Hz, stereo, 224 kb/s
    Stream mapping:
    Stream #0.0 -> #0.0
    Stream #1.0 -> #0.1
    Press [q] to stop encoding
    Encrypted multiplex not handledB time=0.1 bitrate= 545.3kbits/s
    frame=242765 q= 2 size= 1311705kB time=0.1 bitrate=82270843.8kbits/s
    bench: utime=33239.740s
    Encoding complete!
    [jaguar303:~] penta%

    sieht hier einer vieleicht einen fehler?

    mich wunder auch das nach den coden nacher an der datei kein .avi steht
    irgendwas schein ich noch falsch zumachen.

    gibts da auch ne gute anleitung um divx zumachen?

    benutz habe ich die quick einstellung fuer divx

    GrussMacPENTA
     
  2. rischa

    rischa New Member

  3. immi666

    immi666 New Member

    ich raffe es echt nicht, bei mir funzt das ding wie SAU!!!!!
    (zumindest, was VCD anbelangt)
    welche version von FFMPEGX benutzt du?
    es sollte die 0.0.4.g sein, dann dürfte es keine probs geben.....

    grüßchen,
    immi
     
  4. MacPENTA

    MacPENTA New Member

    so ich hab es herausgefunden
    liegt anscheinend am program
    mit mac divx creator gehts wunderbar
    das einzige was nicht zu gehen scheint ist wenn ich den ac3 ton auswaehle.
    gibts da noch extra codecs zu oder wie stellt man das an das das divx mit ac3 ton ist ?

    GrussMacPENTA
     
  5. MacPENTA

    MacPENTA New Member

    @immi
    hehe bei mir geht vcd ja auch ich rede aber von divx ;)
    aber wie gesagt scheint am program zuliegen.

    GrussMacPENTA
     
  6. MacPENTA

    MacPENTA New Member

    also ich versteh nicht warum das nicht hinghauen hat.
    ich hab mal ne divx versucht zuerstellen und das klappte erst auch mit einer kleinen vob aber nun mit einer grossen hat es nicht hingehauen,

    Stream #0.0: Video: msmpeg4 (hq), 640x352, 25.00 fps, q=2-9, 1105 kb/s
    Stream #0.1: Audio: mp3, 44100 Hz, stereo, 224 kb/s
    Stream mapping:
    Stream #0.0 -> #0.0
    Stream #1.0 -> #0.1
    Press [q] to stop encoding
    Encrypted multiplex not handledB time=0.1 bitrate= 545.3kbits/s
    frame=242765 q= 2 size= 1311705kB time=0.1 bitrate=82270843.8kbits/s
    bench: utime=33239.740s
    Encoding complete!
    [jaguar303:~] penta%

    sieht hier einer vieleicht einen fehler?

    mich wunder auch das nach den coden nacher an der datei kein .avi steht
    irgendwas schein ich noch falsch zumachen.

    gibts da auch ne gute anleitung um divx zumachen?

    benutz habe ich die quick einstellung fuer divx

    GrussMacPENTA
     
  7. rischa

    rischa New Member

  8. immi666

    immi666 New Member

    ich raffe es echt nicht, bei mir funzt das ding wie SAU!!!!!
    (zumindest, was VCD anbelangt)
    welche version von FFMPEGX benutzt du?
    es sollte die 0.0.4.g sein, dann dürfte es keine probs geben.....

    grüßchen,
    immi
     
  9. MacPENTA

    MacPENTA New Member

    so ich hab es herausgefunden
    liegt anscheinend am program
    mit mac divx creator gehts wunderbar
    das einzige was nicht zu gehen scheint ist wenn ich den ac3 ton auswaehle.
    gibts da noch extra codecs zu oder wie stellt man das an das das divx mit ac3 ton ist ?

    GrussMacPENTA
     
  10. MacPENTA

    MacPENTA New Member

    @immi
    hehe bei mir geht vcd ja auch ich rede aber von divx ;)
    aber wie gesagt scheint am program zuliegen.

    GrussMacPENTA
     
  11. MacPENTA

    MacPENTA New Member

    also ich versteh nicht warum das nicht hinghauen hat.
    ich hab mal ne divx versucht zuerstellen und das klappte erst auch mit einer kleinen vob aber nun mit einer grossen hat es nicht hingehauen,

    Stream #0.0: Video: msmpeg4 (hq), 640x352, 25.00 fps, q=2-9, 1105 kb/s
    Stream #0.1: Audio: mp3, 44100 Hz, stereo, 224 kb/s
    Stream mapping:
    Stream #0.0 -> #0.0
    Stream #1.0 -> #0.1
    Press [q] to stop encoding
    Encrypted multiplex not handledB time=0.1 bitrate= 545.3kbits/s
    frame=242765 q= 2 size= 1311705kB time=0.1 bitrate=82270843.8kbits/s
    bench: utime=33239.740s
    Encoding complete!
    [jaguar303:~] penta%

    sieht hier einer vieleicht einen fehler?

    mich wunder auch das nach den coden nacher an der datei kein .avi steht
    irgendwas schein ich noch falsch zumachen.

    gibts da auch ne gute anleitung um divx zumachen?

    benutz habe ich die quick einstellung fuer divx

    GrussMacPENTA
     
  12. rischa

    rischa New Member

  13. immi666

    immi666 New Member

    ich raffe es echt nicht, bei mir funzt das ding wie SAU!!!!!
    (zumindest, was VCD anbelangt)
    welche version von FFMPEGX benutzt du?
    es sollte die 0.0.4.g sein, dann dürfte es keine probs geben.....

    grüßchen,
    immi
     
  14. MacPENTA

    MacPENTA New Member

    also ich versteh nicht warum das nicht hinghauen hat.
    ich hab mal ne divx versucht zuerstellen und das klappte erst auch mit einer kleinen vob aber nun mit einer grossen hat es nicht hingehauen,

    Stream #0.0: Video: msmpeg4 (hq), 640x352, 25.00 fps, q=2-9, 1105 kb/s
    Stream #0.1: Audio: mp3, 44100 Hz, stereo, 224 kb/s
    Stream mapping:
    Stream #0.0 -> #0.0
    Stream #1.0 -> #0.1
    Press [q] to stop encoding
    Encrypted multiplex not handledB time=0.1 bitrate= 545.3kbits/s
    frame=242765 q= 2 size= 1311705kB time=0.1 bitrate=82270843.8kbits/s
    bench: utime=33239.740s
    Encoding complete!
    [jaguar303:~] penta%

    sieht hier einer vieleicht einen fehler?

    mich wunder auch das nach den coden nacher an der datei kein .avi steht
    irgendwas schein ich noch falsch zumachen.

    gibts da auch ne gute anleitung um divx zumachen?

    benutz habe ich die quick einstellung fuer divx

    GrussMacPENTA
     
  15. rischa

    rischa New Member

  16. immi666

    immi666 New Member

    ich raffe es echt nicht, bei mir funzt das ding wie SAU!!!!!
    (zumindest, was VCD anbelangt)
    welche version von FFMPEGX benutzt du?
    es sollte die 0.0.4.g sein, dann dürfte es keine probs geben.....

    grüßchen,
    immi
     
  17. MacPENTA

    MacPENTA New Member

    so ich hab es herausgefunden
    liegt anscheinend am program
    mit mac divx creator gehts wunderbar
    das einzige was nicht zu gehen scheint ist wenn ich den ac3 ton auswaehle.
    gibts da noch extra codecs zu oder wie stellt man das an das das divx mit ac3 ton ist ?

    GrussMacPENTA
     
  18. MacPENTA

    MacPENTA New Member

    @immi
    hehe bei mir geht vcd ja auch ich rede aber von divx ;)
    aber wie gesagt scheint am program zuliegen.

    GrussMacPENTA
     

Diese Seite empfehlen