OSEx!!! ich dreh`durch!!!! ;-(=

Dieses Thema im Forum "Hardware" wurde erstellt von immi666, 6. Januar 2003.

  1. immi666

    immi666 New Member

    /Volumes/HD_D_2/VCD/EN_106269/TITLE01-ANGLE1.VOB':
    Stream #0.0: Video: mpegvideo, 720x576, 25.00 fps, 9800 kb/s
    Stream #0.1: Audio: ac3, 48000 Hz, 5:1, 384 kb/s
    Stream #0.2: Audio: ac3, 48000 Hz, 5:1, 384 kb/s
    Stream #0.3: Audio: ac3, 48000 Hz, stereo, 192 kb/s
    Stream #0.4: Audio: ac3, 48000 Hz, stereo, 192 kb/s
    Must supply at least one output file
    sh: -ac: command not found
    Encoding complete!
    [stefan-weimbss-Computer:~] stefanweimbs%

    was zür hölle ist denn jetzt schon wieder????
    *kopfaufschreibtischhau*
     
  2. macmercy

    macmercy New Member

    1.
    Du hast unnötig alle Tonspuren gerippt...

    2.
    Sag ffmpegX doch bitte, wie die neue Datei heissen soll und wohin Du sie haben willst (Save as) - dann sollte es gehen.

    Ach ja - darf ich mal? *deinenkopfaufschreibtischhau*
     
  3. derfiesefuchs

    derfiesefuchs New Member

    das is doch eine ganz eindeutige fehlermeldung!
     
  4. immi666

    immi666 New Member

    1. ich habe aufgrund eines rates von macpenta alle spuren gerippt.
    die deutsche spur ist spur 2. beo vorigen versuchen, den film als svcd
    umzuwandeln, gab ich alles ein wie gehabt: den pfad zum .vob, bennenung der datei,
    voreinstellung svcd, audiospur 2, splitten in 2 chunks, xsvcd......all den ganzen kram, den
    ich vorher auch gemacht habe. ergebnis war ein film OHNE TON!!
    wie kann das? ich flippe echt aus! das hat doch sonst alles immer/ meisst gefunzt?!?
     
  5. immi666

    immi666 New Member

    bei dem film handelt es sich übrigens um EVENT HORIZON.
    kann es sein, dass es sich einfach um eine problem - dvd handelt?
     
  6. macmercy

    macmercy New Member

    DVD Backup 1.2' nehmen - manchmal hilfts...
     
  7. immi666

    immi666 New Member

    der terror geht weiter.....
    ich will jetzt mit FFMPEGX nur den ton konvertieren,
    damit ich weiss, ob jetzt alles geht.
    ENCODE VIDEO hake ich ab, ENCODE AUDIO hake ich an.
    nach start von ffmpegx wird allerdings das bild konvertiert,
    nicht der ton! mit VLC getestet: nur bild, kein ton!
    fuck.......
    was zur hölle ist da los?
     
  8. immi666

    immi666 New Member

    *hochschieb*
    ;-)
     
  9. macmercy

    macmercy New Member

    Go'.

    4. Schmeist den ganzen Kram hin wenn es doch nicht funktioniert... ;)
     

Diese Seite empfehlen